999
dxfrw 0.5.11
0
SECTION
2
HEADER
9
$ACADVER
1
AC1021
9
$HANDSEED
5
20000
9
$DWGCODEPAGE
3
ANSI_1252
9
$INSBASE
10
0
20
0
30
0
9
$EXTMIN
10
-1.125
20
-1.13333333333
30
0
9
$EXTMAX
10
10.4
20
8.125
30
0
9
$LIMMIN
10
0
20
0
9
$LIMMAX
10
420
20
297
9
$ORTHOMODE
70
0
9
$LTSCALE
40
1
9
$TEXTSTYLE
7
STANDARD
9
$CLAYER
8
Annotations
9
$DIMASZ
40
0.1
9
$DIMLFAC
40
1
9
$DIMSCALE
40
1
9
$DIMEXO
40
0.025
9
$DIMEXE
40
0.05
9
$DIMTXT
40
0.1
9
$DIMTSZ
40
0
9
$DIMAUNIT
70
0
9
$DIMADEC
70
2
9
$DIMLUNIT
70
2
9
$DIMSTYLE
2
STANDARD
9
$DIMGAP
40
0.025
9
$DIMTIH
70
0
9
$LUNITS
70
2
9
$LUPREC
70
3
9
$AUNITS
70
0
9
$AUPREC
70
2
9
$SPLINESEGS
70
8
9
$GRIDMODE
70
1
9
$SNAPSTYLE
70
0
9
$GRIDUNIT
10
0
20
0
9
$PINSBASE
10
0
20
0
30
0
9
$PLIMMIN
10
0
20
0
9
$PLIMMAX
10
11
20
8.5
9
$INSUNITS
70
1
9
$PSVPSCALE
40
1
0
ENDSEC
0
SECTION
2
CLASSES
0
ENDSEC
0
SECTION
2
TABLES
0
TABLE
2
VPORT
5
8
330
0
100
AcDbSymbolTable
70
1
0
VPORT
5
31
330
2
100
AcDbSymbolTableRecord
100
AcDbViewportTableRecord
2
*ACTIVE
70
0
10
0
20
0
11
1
21
1
12
6.10450191571
22
4.11159003831
13
0
23
0
14
10
24
10
15
10
25
10
16
0
26
0
36
1
17
0
27
0
37
0
40
9.45181992337
41
1.60081883316
42
50
43
0
44
0
50
0
51
0
71
0
72
100
73
1
74
3
75
0
76
1
77
0
78
0
281
0
65
1
110
0
120
0
130
0
111
1
121
0
131
0
112
0
122
1
132
0
79
0
146
0
348
10020
60
7
61
5
292
1
282
1
141
0
142
0
63
250
421
3358443
0
ENDTAB
0
TABLE
2
LTYPE
5
5
330
0
100
AcDbSymbolTable
70
4
0
LTYPE
5
14
330
5
100
AcDbSymbolTableRecord
100
AcDbLinetypeTableRecord
2
ByBlock
70
0
3

72
65
73
0
40
0
0
LTYPE
5
15
330
5
100
AcDbSymbolTableRecord
100
AcDbLinetypeTableRecord
2
ByLayer
70
0
3

72
65
73
0
40
0
0
LTYPE
5
16
330
5
100
AcDbSymbolTableRecord
100
AcDbLinetypeTableRecord
2
Continuous
70
0
3
Solid line
72
65
73
0
40
0
0
LTYPE
5
32
330
5
100
AcDbSymbolTableRecord
100
AcDbLinetypeTableRecord
2
DOT
70
0
3
Dot . . . . . . . . . . . . . . . . . . . . . .
72
65
73
2
40
6.35
49
0
74
0
49
-6.35
74
0
0
LTYPE
5
33
330
5
100
AcDbSymbolTableRecord
100
AcDbLinetypeTableRecord
2
DOT2
70
0
3
Dot (.5x) .....................................
72
65
73
2
40
3.175
49
0
74
0
49
-3.175
74
0
0
LTYPE
5
34
330
5
100
AcDbSymbolTableRecord
100
AcDbLinetypeTableRecord
2
DOTX2
70
0
3
Dot (2x) .  .  .  .  .  .  .  .  .  .  .  .  .
72
65
73
2
40
12.7
49
0
74
0
49
-12.7
74
0
0
LTYPE
5
35
330
5
100
AcDbSymbolTableRecord
100
AcDbLinetypeTableRecord
2
DASHED
70
0
3
Dot . . . . . . . . . . . . . . . . . . . . . .
72
65
73
2
40
19.05
49
12.7
74
0
49
-6.35
74
0
0
LTYPE
5
36
330
5
100
AcDbSymbolTableRecord
100
AcDbLinetypeTableRecord
2
DASHED2
70
0
3
Dashed (.5x) _ _ _ _ _ _ _ _ _ _ _ _ _ _ _ _ _
72
65
73
2
40
9.525
49
6.35
74
0
49
-3.175
74
0
0
LTYPE
5
37
330
5
100
AcDbSymbolTableRecord
100
AcDbLinetypeTableRecord
2
DASHEDX2
70
0
3
Dashed (2x) ____  ____  ____  ____  ____  ___
72
65
73
2
40
38.1
49
25.4
74
0
49
-12.7
74
0
0
LTYPE
5
38
330
5
100
AcDbSymbolTableRecord
100
AcDbLinetypeTableRecord
2
DASHDOT
70
0
3
Dash dot __ . __ . __ . __ . __ . __ . __ . __
72
65
73
4
40
25.4
49
12.7
74
0
49
-6.35
74
0
49
0
74
0
49
-6.35
74
0
0
LTYPE
5
39
330
5
100
AcDbSymbolTableRecord
100
AcDbLinetypeTableRecord
2
DASHDOT2
70
0
3
Dash dot (.5x) _._._._._._._._._._._._._._._.
72
65
73
4
40
12.7
49
6.35
74
0
49
-3.175
74
0
49
0
74
0
49
-3.175
74
0
0
LTYPE
5
3A
330
5
100
AcDbSymbolTableRecord
100
AcDbLinetypeTableRecord
2
DASHDOTX2
70
0
3
Dash dot (2x) ____  .  ____  .  ____  .  ___
72
65
73
4
40
50.8
49
25.4
74
0
49
-12.7
74
0
49
0
74
0
49
-12.7
74
0
0
LTYPE
5
3B
330
5
100
AcDbSymbolTableRecord
100
AcDbLinetypeTableRecord
2
DIVIDE
70
0
3
Divide ____ . . ____ . . ____ . . ____ . . ____
72
65
73
6
40
31.75
49
12.7
74
0
49
-6.35
74
0
49
0
74
0
49
-6.35
74
0
49
0
74
0
49
-6.35
74
0
0
LTYPE
5
3C
330
5
100
AcDbSymbolTableRecord
100
AcDbLinetypeTableRecord
2
DIVIDE2
70
0
3
Divide (.5x) __..__..__..__..__..__..__..__.._
72
65
73
6
40
15.875
49
6.35
74
0
49
-3.175
74
0
49
0
74
0
49
-3.175
74
0
49
0
74
0
49
-3.175
74
0
0
LTYPE
5
3D
330
5
100
AcDbSymbolTableRecord
100
AcDbLinetypeTableRecord
2
DIVIDEX2
70
0
3
Divide (2x) ________  .  .  ________  .  .  _
72
65
73
6
40
63.5
49
25.4
74
0
49
-12.7
74
0
49
0
74
0
49
-12.7
74
0
49
0
74
0
49
-12.7
74
0
0
LTYPE
5
3E
330
5
100
AcDbSymbolTableRecord
100
AcDbLinetypeTableRecord
2
BORDER
70
0
3
Border __ __ . __ __ . __ __ . __ __ . __ __ .
72
65
73
6
40
44.45
49
12.7
74
0
49
-6.35
74
0
49
12.7
74
0
49
-6.35
74
0
49
0
74
0
49
-6.35
74
0
0
LTYPE
5
3F
330
5
100
AcDbSymbolTableRecord
100
AcDbLinetypeTableRecord
2
BORDER2
70
0
3
Border (.5x) __.__.__.__.__.__.__.__.__.__.__.
72
65
73
6
40
22.225
49
6.35
74
0
49
-3.175
74
0
49
6.35
74
0
49
-3.175
74
0
49
0
74
0
49
-3.175
74
0
0
LTYPE
5
40
330
5
100
AcDbSymbolTableRecord
100
AcDbLinetypeTableRecord
2
BORDERX2
70
0
3
Border (2x) ____  ____  .  ____  ____  .  ___
72
65
73
6
40
88.9
49
25.4
74
0
49
-12.7
74
0
49
25.4
74
0
49
-12.7
74
0
49
0
74
0
49
-12.7
74
0
0
LTYPE
5
41
330
5
100
AcDbSymbolTableRecord
100
AcDbLinetypeTableRecord
2
CENTER
70
0
3
Center ____ _ ____ _ ____ _ ____ _ ____ _ ____
72
65
73
4
40
50.8
49
31.75
74
0
49
-6.35
74
0
49
6.35
74
0
49
-6.35
74
0
0
LTYPE
5
42
330
5
100
AcDbSymbolTableRecord
100
AcDbLinetypeTableRecord
2
CENTER2
70
0
3
Center (.5x) ___ _ ___ _ ___ _ ___ _ ___ _ ___
72
65
73
4
40
28.575
49
19.05
74
0
49
-3.175
74
0
49
3.175
74
0
49
-3.175
74
0
0
LTYPE
5
43
330
5
100
AcDbSymbolTableRecord
100
AcDbLinetypeTableRecord
2
CENTERX2
70
0
3
Center (2x) ________  __  ________  __  _____
72
65
73
4
40
101.6
49
63.5
74
0
49
-12.7
74
0
49
12.7
74
0
49
-12.7
74
0
0
ENDTAB
0
TABLE
2
LAYER
5
2
330
0
100
AcDbSymbolTable
70
1
0
LAYER
5
10
330
2
100
AcDbSymbolTableRecord
100
AcDbLayerTableRecord
2
0
70
0
62
7
6
CONTINUOUS
370
0
390
F
0
LAYER
5
44
330
2
100
AcDbSymbolTableRecord
100
AcDbLayerTableRecord
2
ASME A Sheet
70
0
62
7
6
CONTINUOUS
370
0
390
F
0
LAYER
5
45
330
2
100
AcDbSymbolTableRecord
100
AcDbLayerTableRecord
2
Annotations
70
0
62
3
6
CONTINUOUS
370
0
390
F
0
LAYER
5
46
330
2
100
AcDbSymbolTableRecord
100
AcDbLayerTableRecord
2
crt4 Frame
70
0
62
7
6
CONTINUOUS
370
60
390
F
0
ENDTAB
0
TABLE
2
STYLE
5
3
330
0
100
AcDbSymbolTable
70
3
0
STYLE
5
47
330
2
100
AcDbSymbolTableRecord
100
AcDbTextStyleTableRecord
2
standard
70
0
40
0
41
1
50
0
71
0
42
1
3
standard
4

0
ENDTAB
0
TABLE
2
VIEW
5
6
330
0
100
AcDbSymbolTable
70
0
0
ENDTAB
0
TABLE
2
UCS
5
7
330
0
100
AcDbSymbolTable
70
0
0
ENDTAB
0
TABLE
2
APPID
5
9
330
0
100
AcDbSymbolTable
70
1
0
APPID
5
12
330
9
100
AcDbSymbolTableRecord
100
AcDbRegAppTableRecord
2
ACAD
70
0
0
ENDTAB
0
TABLE
2
DIMSTYLE
5
A
330
0
100
AcDbSymbolTable
70
1
100
AcDbDimStyleTable
71
1
0
DIMSTYLE
105
48
330
A
100
AcDbSymbolTableRecord
100
AcDbDimStyleTableRecord
2
Standard
70
0
40
1
41
0.1
42
0.025
43
0.38
44
0.05
45
0
46
0
47
0
48
0
140
0.1
141
0.09
142
0
143
25.4
144
1
145
0
146
1
147
0.025
148
0
71
0
72
0
73
0
74
1
75
0
76
0
77
0
78
0
79
0
170
0
171
2
172
0
173
0
174
0
175
0
176
0
177
0
178
0
179
0
271
4
272
4
273
2
274
2
275
0
276
0
277
2
278
46
279
0
280
0
281
0
282
0
283
1
284
0
285
0
286
0
288
0
289
3
340
Standard
341

371
-2
372
-2
0
ENDTAB
0
TABLE
2
BLOCK_RECORD
5
1
330
0
100
AcDbSymbolTable
70
2
0
BLOCK_RECORD
5
1F
330
1
100
AcDbSymbolTableRecord
100
AcDbBlockTableRecord
2
*Model_Space
70
0
280
1
281
0
0
BLOCK_RECORD
5
1E
330
1
100
AcDbSymbolTableRecord
100
AcDbBlockTableRecord
2
*Paper_Space
70
0
280
1
281
0
0
BLOCK_RECORD
5
49
330
1
100
AcDbSymbolTableRecord
100
AcDbBlockTableRecord
2
*D1
70
0
280
1
281
0
0
BLOCK_RECORD
5
4C
330
1
100
AcDbSymbolTableRecord
100
AcDbBlockTableRecord
2
*D10
70
0
280
1
281
0
0
BLOCK_RECORD
5
4F
330
1
100
AcDbSymbolTableRecord
100
AcDbBlockTableRecord
2
*D15
70
0
280
1
281
0
0
BLOCK_RECORD
5
52
330
1
100
AcDbSymbolTableRecord
100
AcDbBlockTableRecord
2
*D4
70
0
280
1
281
0
0
BLOCK_RECORD
5
55
330
1
100
AcDbSymbolTableRecord
100
AcDbBlockTableRecord
2
*D8
70
0
280
1
281
0
0
BLOCK_RECORD
5
58
330
1
100
AcDbSymbolTableRecord
100
AcDbBlockTableRecord
2
*D12
70
0
280
1
281
0
0
BLOCK_RECORD
5
5B
330
1
100
AcDbSymbolTableRecord
100
AcDbBlockTableRecord
2
*D7
70
0
280
1
281
0
0
BLOCK_RECORD
5
5E
330
1
100
AcDbSymbolTableRecord
100
AcDbBlockTableRecord
2
*D6
70
0
280
1
281
0
0
BLOCK_RECORD
5
61
330
1
100
AcDbSymbolTableRecord
100
AcDbBlockTableRecord
2
*D11
70
0
280
1
281
0
0
BLOCK_RECORD
5
64
330
1
100
AcDbSymbolTableRecord
100
AcDbBlockTableRecord
2
*D5
70
0
280
1
281
0
0
BLOCK_RECORD
5
67
330
1
100
AcDbSymbolTableRecord
100
AcDbBlockTableRecord
2
*D9
70
0
280
1
281
0
0
BLOCK_RECORD
5
6A
330
1
100
AcDbSymbolTableRecord
100
AcDbBlockTableRecord
2
*D2
70
0
280
1
281
0
0
BLOCK_RECORD
5
6D
330
1
100
AcDbSymbolTableRecord
100
AcDbBlockTableRecord
2
*D13
70
0
280
1
281
0
0
BLOCK_RECORD
5
70
330
1
100
AcDbSymbolTableRecord
100
AcDbBlockTableRecord
2
*D3
70
0
280
1
281
0
0
BLOCK_RECORD
5
73
330
1
100
AcDbSymbolTableRecord
100
AcDbBlockTableRecord
2
*D14
70
0
280
1
281
0
0
ENDTAB
0
ENDSEC
0
SECTION
2
BLOCKS
0
BLOCK
5
20
330
1F
100
AcDbEntity
8
0
100
AcDbBlockBegin
2
*Model_Space
70
0
10
0
20
0
30
0
3
*Model_Space
1

0
ENDBLK
5
21
330
1F
100
AcDbEntity
8
0
100
AcDbBlockEnd
0
BLOCK
5
1C
330
1B
100
AcDbEntity
8
0
100
AcDbBlockBegin
2
*Paper_Space
70
0
10
0
20
0
30
0
3
*Paper_Space
1

0
ENDBLK
5
1D
330
1F
100
AcDbEntity
8
0
100
AcDbBlockEnd
0
BLOCK
5
4A
330
49
100
AcDbEntity
8
0
100
AcDbBlockBegin
2
*D1
70
1
10
0
20
0
3
*D1
1

0
LINE
5
76
100
AcDbEntity
8
Annotations
6
CONTINUOUS
62
7
370
0
100
AcDbLine
10
-0.6
20
1.3
11
-2.77555756156e-17
21
1.3
0
SOLID
5
77
100
AcDbEntity
8
Annotations
6
CONTINUOUS
62
7
370
0
100
AcDbTrace
10
-0.6
20
1.3
30
0
11
-0.5
21
1.31665138631
31
0
12
-0.5
22
1.28334861369
32
0
13
-0.5
23
1.28334861369
33
0
0
SOLID
5
78
100
AcDbEntity
8
Annotations
6
CONTINUOUS
62
7
370
0
100
AcDbTrace
10
-2.77555756156e-17
20
1.3
30
0
11
-0.1
21
1.28334861369
31
0
12
-0.1
22
1.31665138631
32
0
13
-0.1
23
1.31665138631
33
0
0
MTEXT
5
79
100
AcDbEntity
8
Annotations
6
CONTINUOUS
62
7
370
0
100
AcDbMText
10
-0.3
20
1.375
30
0
40
0.1
41
0.155555555556
71
5
72
1
1
0.6
7
standard
210
0
220
0
230
1
50
0
73
2
44
1
0
LINE
5
7A
100
AcDbEntity
8
Annotations
6
CONTINUOUS
62
7
370
0
100
AcDbLine
10
-0.6
20
1.325
11
-0.6
21
1.35
0
LINE
5
7B
100
AcDbEntity
8
Annotations
6
CONTINUOUS
62
7
370
0
100
AcDbLine
10
-2.62247671167e-17
20
1.325
11
-2.46939586177e-17
21
1.35
0
ENDBLK
5
4B
330
49
100
AcDbEntity
8
0
100
AcDbBlockEnd
0
BLOCK
5
4D
330
4C
100
AcDbEntity
8
0
100
AcDbBlockBegin
2
*D10
70
1
10
0
20
0
3
*D10
1

0
LINE
5
7C
100
AcDbEntity
8
Annotations
6
CONTINUOUS
62
7
370
0
100
AcDbLine
10
4.9
20
8
11
9.15
21
8
0
SOLID
5
7D
100
AcDbEntity
8
Annotations
6
CONTINUOUS
62
7
370
0
100
AcDbTrace
10
4.9
20
8
30
0
11
5
21
8.01665138631
31
0
12
5
22
7.98334861369
32
0
13
5
23
7.98334861369
33
0
0
SOLID
5
7E
100
AcDbEntity
8
Annotations
6
CONTINUOUS
62
7
370
0
100
AcDbTrace
10
9.15
20
8
30
0
11
9.05
21
7.98334861369
31
0
12
9.05
22
8.01665138631
32
0
13
9.05
23
8.01665138631
33
0
0
MTEXT
5
7F
100
AcDbEntity
8
Annotations
6
CONTINUOUS
62
7
370
0
100
AcDbMText
10
7.025
20
8.075
30
0
40
0.1
41
0.352777777778
71
5
72
1
1
4 1/4
7
standard
210
0
220
0
230
1
50
0
73
2
44
1
0
LINE
5
80
100
AcDbEntity
8
Annotations
6
CONTINUOUS
62
7
370
0
100
AcDbLine
10
4.9
20
7.34875
11
4.9
21
8.05
0
LINE
5
81
100
AcDbEntity
8
Annotations
6
CONTINUOUS
62
7
370
0
100
AcDbLine
10
9.15
20
7.34875
11
9.15
21
8.05
0
ENDBLK
5
4E
330
4C
100
AcDbEntity
8
0
100
AcDbBlockEnd
0
BLOCK
5
50
330
4F
100
AcDbEntity
8
0
100
AcDbBlockBegin
2
*D15
70
1
10
0
20
0
3
*D15
1

0
LINE
5
82
100
AcDbEntity
8
Annotations
6
CONTINUOUS
62
7
370
0
100
AcDbLine
10
0
20
1.3
11
10.08
21
1.3
0
SOLID
5
83
100
AcDbEntity
8
Annotations
6
CONTINUOUS
62
7
370
0
100
AcDbTrace
10
0
20
1.3
30
0
11
0.1
21
1.31665138631
31
0
12
0.1
22
1.28334861369
32
0
13
0.1
23
1.28334861369
33
0
0
SOLID
5
84
100
AcDbEntity
8
Annotations
6
CONTINUOUS
62
7
370
0
100
AcDbTrace
10
10.08
20
1.3
30
0
11
9.98
21
1.28334861369
31
0
12
9.98
22
1.31665138631
32
0
13
9.98
23
1.31665138631
33
0
0
MTEXT
5
85
100
AcDbEntity
8
Annotations
6
CONTINUOUS
62
7
370
0
100
AcDbMText
10
5.04
20
1.375
30
0
40
0.1
41
1.03333332222
71
5
72
1
1
10.08"  (256mm)
7
standard
210
0
220
0
230
1
50
0
73
2
44
1
0
LINE
5
86
100
AcDbEntity
8
Annotations
6
CONTINUOUS
62
7
370
0
100
AcDbLine
10
-2.54392606038e-16
20
1.275
11
-9.18485099361e-18
21
1.25
0
LINE
5
87
100
AcDbEntity
8
Annotations
6
CONTINUOUS
62
7
370
0
100
AcDbLine
10
10.08
20
1.27784301607
11
10.08
21
1.25
0
ENDBLK
5
51
330
4F
100
AcDbEntity
8
0
100
AcDbBlockEnd
0
BLOCK
5
53
330
52
100
AcDbEntity
8
0
100
AcDbBlockBegin
2
*D4
70
1
10
0
20
0
3
*D4
1

0
LINE
5
88
100
AcDbEntity
8
Annotations
6
CONTINUOUS
62
7
370
0
100
AcDbLine
10
-0.19375
20
5.3
11
-0.6
21
5.3
0
SOLID
5
89
100
AcDbEntity
8
Annotations
6
CONTINUOUS
62
7
370
0
100
AcDbTrace
10
-0.19375
20
5.3
30
0
11
-0.29375
21
5.28334861369
31
0
12
-0.29375
22
5.31665138631
32
0
13
-0.29375
23
5.31665138631
33
0
0
SOLID
5
8A
100
AcDbEntity
8
Annotations
6
CONTINUOUS
62
7
370
0
100
AcDbTrace
10
-0.6
20
5.3
30
0
11
-0.5
21
5.31665138631
31
0
12
-0.5
22
5.28334861369
32
0
13
-0.5
23
5.28334861369
33
0
0
MTEXT
5
8B
100
AcDbEntity
8
Annotations
6
CONTINUOUS
62
7
370
0
100
AcDbMText
10
-0.396875
20
5.375
30
0
40
0.1
41
0.333333333333
71
5
72
1
1
13/32
7
standard
210
0
220
0
230
1
50
360
73
2
44
1
0
LINE
5
8C
100
AcDbEntity
8
Annotations
6
CONTINUOUS
62
7
370
0
100
AcDbLine
10
-0.19375
20
4.88
11
-0.19375
21
5.35
0
LINE
5
8D
100
AcDbEntity
8
Annotations
6
CONTINUOUS
62
7
370
0
100
AcDbLine
10
-0.6
20
4.88
11
-0.6
21
5.35
0
ENDBLK
5
54
330
52
100
AcDbEntity
8
0
100
AcDbBlockEnd
0
BLOCK
5
56
330
55
100
AcDbEntity
8
0
100
AcDbBlockBegin
2
*D8
70
1
10
0
20
0
3
*D8
1

0
LINE
5
8E
100
AcDbEntity
8
Annotations
6
CONTINUOUS
62
7
370
0
100
AcDbLine
10
-0.6
20
8
11
0.65
21
8
0
SOLID
5
8F
100
AcDbEntity
8
Annotations
6
CONTINUOUS
62
7
370
0
100
AcDbTrace
10
-0.6
20
8
30
0
11
-0.5
21
8.01665138631
31
0
12
-0.5
22
7.98334861369
32
0
13
-0.5
23
7.98334861369
33
0
0
SOLID
5
90
100
AcDbEntity
8
Annotations
6
CONTINUOUS
62
7
370
0
100
AcDbTrace
10
0.65
20
8
30
0
11
0.55
21
7.98334861369
31
0
12
0.55
22
8.01665138631
32
0
13
0.55
23
8.01665138631
33
0
0
MTEXT
5
91
100
AcDbEntity
8
Annotations
6
CONTINUOUS
62
7
370
0
100
AcDbMText
10
0.025
20
8.075
30
0
40
0.1
41
0.319444444444
71
5
72
1
1
1 1/4
7
standard
210
0
220
0
230
1
50
0
73
2
44
1
0
LINE
5
92
100
AcDbEntity
8
Annotations
6
CONTINUOUS
62
7
370
0
100
AcDbLine
10
-0.6
20
7.755
11
-0.6
21
8.05
0
LINE
5
93
100
AcDbEntity
8
Annotations
6
CONTINUOUS
62
7
370
0
100
AcDbLine
10
0.65
20
7.34875
11
0.65
21
8.05
0
ENDBLK
5
57
330
55
100
AcDbEntity
8
0
100
AcDbBlockEnd
0
BLOCK
5
59
330
58
100
AcDbEntity
8
0
100
AcDbBlockBegin
2
*D12
70
1
10
0
20
0
3
*D12
1

0
LINE
5
94
100
AcDbEntity
8
Annotations
6
CONTINUOUS
62
7
370
0
100
AcDbLine
10
4.759375
20
7.32375
11
5.040625
21
7.32375
0
SOLID
5
95
100
AcDbEntity
8
Annotations
6
CONTINUOUS
62
7
370
0
100
AcDbTrace
10
4.759375
20
7.32375
30
0
11
4.859375
21
7.34040138631
31
0
12
4.859375
22
7.30709861369
32
0
13
4.859375
23
7.30709861369
33
0
0
SOLID
5
96
100
AcDbEntity
8
Annotations
6
CONTINUOUS
62
7
370
0
100
AcDbTrace
10
5.040625
20
7.32375
30
0
11
4.940625
21
7.30709861369
31
0
12
4.940625
22
7.34040138631
32
0
13
4.940625
23
7.34040138631
33
0
0
MTEXT
5
97
100
AcDbEntity
8
Annotations
6
CONTINUOUS
62
7
370
0
100
AcDbMText
10
4.9
20
7.39875
30
0
40
0.1
41
0.277777777778
71
5
72
1
1
     9/32
7
standard
210
0
220
0
230
1
50
0
73
2
44
1
0
ENDBLK
5
5A
330
58
100
AcDbEntity
8
0
100
AcDbBlockEnd
0
BLOCK
5
5C
330
5B
100
AcDbEntity
8
0
100
AcDbBlockBegin
2
*D7
70
1
10
0
20
0
3
*D7
1

0
LINE
5
98
100
AcDbEntity
8
Annotations
6
CONTINUOUS
62
7
370
0
100
AcDbLine
10
-1
20
4.855
11
-1
21
7.73
0
SOLID
5
99
100
AcDbEntity
8
Annotations
6
CONTINUOUS
62
7
370
0
100
AcDbTrace
10
-1
20
4.855
30
0
11
-1.01665138631
21
4.955
31
0
12
-0.983348613689
22
4.955
32
0
13
-0.983348613689
23
4.955
33
0
0
SOLID
5
9A
100
AcDbEntity
8
Annotations
6
CONTINUOUS
62
7
370
0
100
AcDbTrace
10
-1
20
7.73
30
0
11
-0.983348613689
21
7.63
31
0
12
-1.01665138631
22
7.63
32
0
13
-1.01665138631
23
7.63
33
0
0
MTEXT
5
9B
100
AcDbEntity
8
Annotations
6
CONTINUOUS
62
7
370
0
100
AcDbMText
10
-1.075
20
6.2925
30
0
40
0.1
41
0.352777777778
71
5
72
1
1
2 7/8
7
standard
210
0
220
0
230
1
50
90
73
2
44
1
0
LINE
5
9C
100
AcDbEntity
8
Annotations
6
CONTINUOUS
62
7
370
0
100
AcDbLine
10
-0.21875
20
4.855
11
-1.05
21
4.855
0
LINE
5
9D
100
AcDbEntity
8
Annotations
6
CONTINUOUS
62
7
370
0
100
AcDbLine
10
-0.625
20
7.73
11
-1.05
21
7.73
0
ENDBLK
5
5D
330
5B
100
AcDbEntity
8
0
100
AcDbBlockEnd
0
BLOCK
5
5F
330
5E
100
AcDbEntity
8
0
100
AcDbBlockBegin
2
*D6
70
1
10
0
20
0
3
*D6
1

0
LINE
5
9E
100
AcDbEntity
8
Annotations
6
CONTINUOUS
62
7
370
0
100
AcDbLine
10
-1
20
-0.77
11
-1
21
2.105
0
SOLID
5
9F
100
AcDbEntity
8
Annotations
6
CONTINUOUS
62
7
370
0
100
AcDbTrace
10
-1
20
-0.77
30
0
11
-1.01665138631
21
-0.67
31
0
12
-0.983348613689
22
-0.67
32
0
13
-0.983348613689
23
-0.67
33
0
0
SOLID
5
A0
100
AcDbEntity
8
Annotations
6
CONTINUOUS
62
7
370
0
100
AcDbTrace
10
-1
20
2.105
30
0
11
-0.983348613689
21
2.005
31
0
12
-1.01665138631
22
2.005
32
0
13
-1.01665138631
23
2.005
33
0
0
MTEXT
5
A1
100
AcDbEntity
8
Annotations
6
CONTINUOUS
62
7
370
0
100
AcDbMText
10
-1.075
20
0.6675
30
0
40
0.1
41
0.352777777778
71
5
72
1
1
2 7/8
7
standard
210
0
220
0
230
1
50
90
73
2
44
1
0
LINE
5
A2
100
AcDbEntity
8
Annotations
6
CONTINUOUS
62
7
370
0
100
AcDbLine
10
-0.625
20
-0.77
11
-1.05
21
-0.77
0
LINE
5
A3
100
AcDbEntity
8
Annotations
6
CONTINUOUS
62
7
370
0
100
AcDbLine
10
-0.21875
20
2.105
11
-1.05
21
2.105
0
ENDBLK
5
60
330
5E
100
AcDbEntity
8
0
100
AcDbBlockEnd
0
BLOCK
5
62
330
61
100
AcDbEntity
8
0
100
AcDbBlockBegin
2
*D11
70
1
10
0
20
0
3
*D11
1

0
LINE
5
A4
100
AcDbEntity
8
Annotations
6
CONTINUOUS
62
7
370
0
100
AcDbLine
10
9.15
20
8
11
10.4
21
8
0
SOLID
5
A5
100
AcDbEntity
8
Annotations
6
CONTINUOUS
62
7
370
0
100
AcDbTrace
10
9.15
20
8
30
0
11
9.25
21
8.01665138631
31
0
12
9.25
22
7.98334861369
32
0
13
9.25
23
7.98334861369
33
0
0
SOLID
5
A6
100
AcDbEntity
8
Annotations
6
CONTINUOUS
62
7
370
0
100
AcDbTrace
10
10.4
20
8
30
0
11
10.3
21
7.98334861369
31
0
12
10.3
22
8.01665138631
32
0
13
10.3
23
8.01665138631
33
0
0
MTEXT
5
A7
100
AcDbEntity
8
Annotations
6
CONTINUOUS
62
7
370
0
100
AcDbMText
10
9.775
20
8.075
30
0
40
0.1
41
0.319444444444
71
5
72
1
1
1 1/4
7
standard
210
0
220
0
230
1
50
0
73
2
44
1
0
LINE
5
A8
100
AcDbEntity
8
Annotations
6
CONTINUOUS
62
7
370
0
100
AcDbLine
10
9.15
20
7.34875
11
9.15
21
8.05
0
LINE
5
A9
100
AcDbEntity
8
Annotations
6
CONTINUOUS
62
7
370
0
100
AcDbLine
10
10.4
20
7.755
11
10.4
21
8.05
0
ENDBLK
5
63
330
61
100
AcDbEntity
8
0
100
AcDbBlockEnd
0
BLOCK
5
65
330
64
100
AcDbEntity
8
0
100
AcDbBlockBegin
2
*D5
70
1
10
0
20
0
3
*D5
1

0
LINE
5
AA
100
AcDbEntity
8
Annotations
6
CONTINUOUS
62
7
370
0
100
AcDbLine
10
-1
20
2.105
11
-1
21
4.855
0
SOLID
5
AB
100
AcDbEntity
8
Annotations
6
CONTINUOUS
62
7
370
0
100
AcDbTrace
10
-1
20
2.105
30
0
11
-1.01665138631
21
2.205
31
0
12
-0.983348613689
22
2.205
32
0
13
-0.983348613689
23
2.205
33
0
0
SOLID
5
AC
100
AcDbEntity
8
Annotations
6
CONTINUOUS
62
7
370
0
100
AcDbTrace
10
-1
20
4.855
30
0
11
-0.983348613689
21
4.755
31
0
12
-1.01665138631
22
4.755
32
0
13
-1.01665138631
23
4.755
33
0
0
MTEXT
5
AD
100
AcDbEntity
8
Annotations
6
CONTINUOUS
62
7
370
0
100
AcDbMText
10
-1.075
20
3.48
30
0
40
0.1
41
0.363888888889
71
5
72
1
1
2 3/4
7
standard
210
0
220
0
230
1
50
90
73
2
44
1
0
LINE
5
AE
100
AcDbEntity
8
Annotations
6
CONTINUOUS
62
7
370
0
100
AcDbLine
10
-0.21875
20
2.105
11
-1.05
21
2.105
0
LINE
5
AF
100
AcDbEntity
8
Annotations
6
CONTINUOUS
62
7
370
0
100
AcDbLine
10
-0.21875
20
4.855
11
-1.05
21
4.855
0
ENDBLK
5
66
330
64
100
AcDbEntity
8
0
100
AcDbBlockEnd
0
BLOCK
5
68
330
67
100
AcDbEntity
8
0
100
AcDbBlockBegin
2
*D9
70
1
10
0
20
0
3
*D9
1

0
LINE
5
B0
100
AcDbEntity
8
Annotations
6
CONTINUOUS
62
7
370
0
100
AcDbLine
10
0.65
20
8
11
4.9
21
8
0
SOLID
5
B1
100
AcDbEntity
8
Annotations
6
CONTINUOUS
62
7
370
0
100
AcDbTrace
10
0.65
20
8
30
0
11
0.75
21
8.01665138631
31
0
12
0.75
22
7.98334861369
32
0
13
0.75
23
7.98334861369
33
0
0
SOLID
5
B2
100
AcDbEntity
8
Annotations
6
CONTINUOUS
62
7
370
0
100
AcDbTrace
10
4.9
20
8
30
0
11
4.8
21
7.98334861369
31
0
12
4.8
22
8.01665138631
32
0
13
4.8
23
8.01665138631
33
0
0
MTEXT
5
B3
100
AcDbEntity
8
Annotations
6
CONTINUOUS
62
7
370
0
100
AcDbMText
10
2.775
20
8.075
30
0
40
0.1
41
0.352777777778
71
5
72
1
1
4 1/4
7
standard
210
0
220
0
230
1
50
0
73
2
44
1
0
LINE
5
B4
100
AcDbEntity
8
Annotations
6
CONTINUOUS
62
7
370
0
100
AcDbLine
10
0.65
20
7.34875
11
0.65
21
8.05
0
LINE
5
B5
100
AcDbEntity
8
Annotations
6
CONTINUOUS
62
7
370
0
100
AcDbLine
10
4.9
20
7.34875
11
4.9
21
8.05
0
ENDBLK
5
69
330
67
100
AcDbEntity
8
0
100
AcDbBlockEnd
0
BLOCK
5
6B
330
6A
100
AcDbEntity
8
0
100
AcDbBlockBegin
2
*D2
70
1
10
0
20
0
3
*D2
1

0
LINE
5
B6
100
AcDbEntity
8
Annotations
6
CONTINUOUS
62
7
370
0
100
AcDbLine
10
1.3
20
0
11
1.3
21
-0.77
0
SOLID
5
B7
100
AcDbEntity
8
Annotations
6
CONTINUOUS
62
7
370
0
100
AcDbTrace
10
1.3
20
0
30
0
11
1.31665138631
21
-0.1
31
0
12
1.28334861369
22
-0.1
32
0
13
1.28334861369
23
-0.1
33
0
0
SOLID
5
B8
100
AcDbEntity
8
Annotations
6
CONTINUOUS
62
7
370
0
100
AcDbTrace
10
1.3
20
-0.77
30
0
11
1.28334861369
21
-0.67
31
0
12
1.31665138631
22
-0.67
32
0
13
1.31665138631
23
-0.67
33
0
0
MTEXT
5
B9
100
AcDbEntity
8
Annotations
6
CONTINUOUS
62
7
370
0
100
AcDbMText
10
1.225
20
-0.385
30
0
40
0.1
41
0.233333333333
71
5
72
1
1
0.77
7
standard
210
0
220
0
230
1
50
90
73
2
44
1
0
LINE
5
BA
100
AcDbEntity
8
Annotations
6
CONTINUOUS
62
7
370
0
100
AcDbLine
10
1.275
20
3.08171926135e-17
11
1.25
21
6.12323399574e-18
0
LINE
5
BB
100
AcDbEntity
8
Annotations
6
CONTINUOUS
62
7
370
0
100
AcDbLine
10
1.27502685785
20
-0.77
11
1.25
21
-0.77
0
ENDBLK
5
6C
330
6A
100
AcDbEntity
8
0
100
AcDbBlockEnd
0
BLOCK
5
6E
330
6D
100
AcDbEntity
8
0
100
AcDbBlockBegin
2
*D13
70
1
10
0
20
0
3
*D13
1

0
LINE
5
BC
100
AcDbEntity
8
Annotations
6
CONTINUOUS
62
7
370
0
100
AcDbLine
10
10.28
20
4.32
11
9.856
21
4.32
0
SOLID
5
BD
100
AcDbEntity
8
Annotations
6
CONTINUOUS
62
7
370
0
100
AcDbTrace
10
10.08
20
4.32
30
0
11
10.18
21
4.33665138631
31
0
12
10.18
22
4.30334861369
32
0
13
10.18
23
4.30334861369
33
0
0
SOLID
5
BE
100
AcDbEntity
8
Annotations
6
CONTINUOUS
62
7
370
0
100
AcDbTrace
10
10.056
20
4.32
30
0
11
9.956
21
4.30334861369
31
0
12
9.956
22
4.33665138631
32
0
13
9.956
23
4.33665138631
33
0
0
MTEXT
5
BF
100
AcDbEntity
8
Annotations
6
CONTINUOUS
62
7
370
0
100
AcDbMText
10
10.068
20
4.395
30
0
40
0.1
41
0
71
5
72
1
1

7
standard
210
0
220
0
230
1
50
360
73
2
44
1
0
LINE
5
C0
100
AcDbEntity
8
Annotations
6
CONTINUOUS
62
7
370
0
100
AcDbLine
10
10.08
20
4.325
11
10.08
21
4.37
0
LINE
5
C1
100
AcDbEntity
8
Annotations
6
CONTINUOUS
62
7
370
0
100
AcDbLine
10
10.056
20
4.325
11
10.056
21
4.37
0
ENDBLK
5
6F
330
6D
100
AcDbEntity
8
0
100
AcDbBlockEnd
0
BLOCK
5
71
330
70
100
AcDbEntity
8
0
100
AcDbBlockBegin
2
*D3
70
1
10
0
20
0
3
*D3
1

0
LINE
5
C2
100
AcDbEntity
8
Annotations
6
CONTINUOUS
62
7
370
0
100
AcDbLine
10
10.4
20
1.3
11
10.08
21
1.3
0
SOLID
5
C3
100
AcDbEntity
8
Annotations
6
CONTINUOUS
62
7
370
0
100
AcDbTrace
10
10.4
20
1.3
30
0
11
10.3
21
1.28334861369
31
0
12
10.3
22
1.31665138631
32
0
13
10.3
23
1.31665138631
33
0
0
SOLID
5
C4
100
AcDbEntity
8
Annotations
6
CONTINUOUS
62
7
370
0
100
AcDbTrace
10
10.08
20
1.3
30
0
11
10.18
21
1.31665138631
31
0
12
10.18
22
1.28334861369
32
0
13
10.18
23
1.28334861369
33
0
0
MTEXT
5
C5
100
AcDbEntity
8
Annotations
6
CONTINUOUS
62
7
370
0
100
AcDbMText
10
10.24
20
1.375
30
0
40
0.1
41
0.233333333333
71
5
72
1
1
0.32
7
standard
210
0
220
0
230
1
50
360
73
2
44
1
0
LINE
5
C6
100
AcDbEntity
8
Annotations
6
CONTINUOUS
62
7
370
0
100
AcDbLine
10
10.4
20
1.275
11
10.4
21
1.25
0
LINE
5
C7
100
AcDbEntity
8
Annotations
6
CONTINUOUS
62
7
370
0
100
AcDbLine
10
10.08
20
1.27640400494
11
10.08
21
1.25
0
ENDBLK
5
72
330
70
100
AcDbEntity
8
0
100
AcDbBlockEnd
0
BLOCK
5
74
330
73
100
AcDbEntity
8
0
100
AcDbBlockBegin
2
*D14
70
1
10
0
20
0
3
*D14
1

0
LINE
5
C8
100
AcDbEntity
8
Annotations
6
CONTINUOUS
62
7
370
0
100
AcDbLine
10
1.3
20
0
11
1.3
21
7.13
0
SOLID
5
C9
100
AcDbEntity
8
Annotations
6
CONTINUOUS
62
7
370
0
100
AcDbTrace
10
1.3
20
0
30
0
11
1.28334861369
21
0.1
31
0
12
1.31665138631
22
0.1
32
0
13
1.31665138631
23
0.1
33
0
0
SOLID
5
CA
100
AcDbEntity
8
Annotations
6
CONTINUOUS
62
7
370
0
100
AcDbTrace
10
1.3
20
7.13
30
0
11
1.31665138631
21
7.03
31
0
12
1.28334861369
22
7.03
32
0
13
1.28334861369
23
7.03
33
0
0
MTEXT
5
CB
100
AcDbEntity
8
Annotations
6
CONTINUOUS
62
7
370
0
100
AcDbMText
10
1.225
20
3.565
30
0
40
0.1
41
0.9111111
71
5
72
1
1
7.13" (181 mm)
7
standard
210
0
220
0
230
1
50
90
73
2
44
1
0
LINE
5
CC
100
AcDbEntity
8
Annotations
6
CONTINUOUS
62
7
370
0
100
AcDbLine
10
1.325
20
-1.11022302463e-16
11
1.35
21
0
0
LINE
5
CD
100
AcDbEntity
8
Annotations
6
CONTINUOUS
62
7
370
0
100
AcDbLine
10
1.31069592089
20
7.13
11
1.35
21
7.13
0
ENDBLK
5
75
330
73
100
AcDbEntity
8
0
100
AcDbBlockEnd
0
ENDSEC
0
SECTION
2
ENTITIES
0
CIRCLE
5
CE
100
AcDbEntity
8
0
6
ByLayer
62
256
370
-1
100
AcDbCircle
10
-0.19375
20
2.105
40
0.140625
0
CIRCLE
5
CF
100
AcDbEntity
8
0
6
ByLayer
62
256
370
-1
100
AcDbCircle
10
-0.19375
20
4.855
40
0.140625
0
MTEXT
5
D0
100
AcDbEntity
8
Annotations
6
ByLayer
62
256
370
-1
100
AcDbMText
10
-0.304697156984
20
-0.0840543881335
30
0
40
0.1
41
0.249999977778
71
1
72
1
1
(0,0)
7
standard
210
0
220
0
230
1
50
0
73
2
44
1
0
LINE
5
D1
100
AcDbEntity
8
Annotations
6
ByLayer
62
256
370
-1
100
AcDbLine
10
-0.6
20
1
11
-0.6
21
1.6
0
LINE
5
D2
100
AcDbEntity
8
Annotations
6
ByLayer
62
256
370
-1
100
AcDbLine
10
0
20
1
11
0
21
1.6
0
DIMENSION
5
D3
100
AcDbEntity
8
Annotations
6
ByLayer
62
256
370
-1
100
AcDbDimension
2
*D1
10
-2.77555756156e-17
20
1.3
30
0
11
-0.3
21
1.375
31
0
70
32
71
5
3
Standard
53
0
210
0
220
0
230
1
100
AcDbAlignedDimension
13
-0.6
23
1.3
33
0
14
-2.77555756156e-17
24
1.3
34
0
100
AcDbRotatedDimension
0
LINE
5
D4
100
AcDbEntity
8
Annotations
6
ByLayer
62
256
370
-1
100
AcDbLine
10
1
20
2.77555756156e-17
11
1.6
21
2.77555756156e-17
0
LINE
5
D5
100
AcDbEntity
8
Annotations
6
ByLayer
62
256
370
-1
100
AcDbLine
10
1
20
-0.77
11
1.6
21
-0.77
0
DIMENSION
5
D6
100
AcDbEntity
8
Annotations
6
ByLayer
62
256
370
-1
100
AcDbDimension
2
*D2
10
1.3
20
-0.77
30
0
11
1.225
21
-0.385
31
0
70
32
71
5
3
Standard
53
0
210
0
220
0
230
1
100
AcDbAlignedDimension
13
1.3
23
2.77555756156e-17
33
0
14
1.30002685785
24
-0.77
34
0
50
90
100
AcDbRotatedDimension
0
LINE
5
D7
100
AcDbEntity
8
Annotations
6
ByLayer
62
256
370
-1
100
AcDbLine
10
1
20
7.13
11
1.6
21
7.13
0
LINE
5
D8
100
AcDbEntity
8
Annotations
6
ByLayer
62
256
370
-1
100
AcDbLine
10
10.4
20
1.02546353523
11
10.4
21
1.6
0
DIMENSION
5
D9
100
AcDbEntity
8
Annotations
6
ByLayer
62
256
370
-1
100
AcDbDimension
2
*D3
10
10.08
20
1.3
30
0
11
10.24
21
1.375
31
0
70
32
71
5
3
Standard
53
0
210
0
220
0
230
1
100
AcDbAlignedDimension
13
10.4
23
1.3
33
0
14
10.08
24
1.30140400494
34
0
100
AcDbRotatedDimension
0
LINE
5
DA
100
AcDbEntity
8
Annotations
6
ByLayer
62
256
370
-1
100
AcDbLine
10
10.08
20
4
11
10.08
21
4.6
0
MTEXT
5
DB
100
AcDbEntity
8
Annotations
6
ByLayer
62
256
370
-1
100
AcDbMText
10
2.6
20
4.4
30
0
40
0.3
41
4.80833320613
71
1
72
1
1
On ASME/ANSI A Paper
7
standard
210
0
220
0
230
1
50
0
73
2
44
1
0
LINE
5
DC
100
AcDbEntity
8
ASME A Sheet
6
ByLayer
62
256
370
-1
100
AcDbLine
10
-0.6
20
-0.77
11
10.4
21
-0.77
0
LINE
5
DD
100
AcDbEntity
8
ASME A Sheet
6
ByLayer
62
256
370
-1
100
AcDbLine
10
-0.6
20
-0.77
11
-0.6
21
7.73
0
LINE
5
DE
100
AcDbEntity
8
ASME A Sheet
6
ByLayer
62
256
370
-1
100
AcDbLine
10
10.4
20
-0.77
11
10.4
21
7.73
0
LINE
5
DF
100
AcDbEntity
8
ASME A Sheet
6
ByLayer
62
256
370
-1
100
AcDbLine
10
-0.6
20
7.73
11
10.4
21
7.73
0
MTEXT
5
E0
100
AcDbEntity
8
Annotations
6
ByLayer
62
256
370
-1
100
AcDbMText
10
2.5
20
3.8
30
0
40
0.2
41
5.03333334935
71
1
72
1
1
(11 x 8.5" = US Letter, "Landscape")
7
standard
210
0
220
0
230
1
50
0
73
2
44
1
0
DIMENSION
5
E1
100
AcDbEntity
8
Annotations
6
ByLayer
62
256
370
-1
100
AcDbDimension
2
*D4
10
-0.6
20
5.3
30
0
11
-0.396875
21
5.375
31
0
70
32
1
13/32
71
5
3
Standard
53
0
210
0
220
0
230
1
100
AcDbAlignedDimension
13
-0.19375
23
4.855
33
0
14
-0.6
24
4.855
34
0
100
AcDbRotatedDimension
0
CIRCLE
5
E2
100
AcDbEntity
8
0
6
ByLayer
62
256
370
-1
100
AcDbCircle
10
0.65
20
7.32375
40
0.140625
0
CIRCLE
5
E3
100
AcDbEntity
8
0
6
ByLayer
62
256
370
-1
100
AcDbCircle
10
4.9
20
7.32375
40
0.140625
0
CIRCLE
5
E4
100
AcDbEntity
8
0
6
ByLayer
62
256
370
-1
100
AcDbCircle
10
9.15
20
7.32375
40
0.140625
0
DIMENSION
5
E5
100
AcDbEntity
8
Annotations
6
ByLayer
62
256
370
0
100
AcDbDimension
2
*D5
10
-1
20
4.855
30
0
11
-1.075
21
3.48
31
0
70
32
1
2 3/4
71
5
3
Standard
53
0
210
0
220
0
230
1
100
AcDbAlignedDimension
13
-0.19375
23
2.105
33
0
14
-0.19375
24
4.855
34
0
50
90
100
AcDbRotatedDimension
0
DIMENSION
5
E6
100
AcDbEntity
8
Annotations
6
ByLayer
62
256
370
0
100
AcDbDimension
2
*D6
10
-1
20
2.105
30
0
11
-1.075
21
0.6675
31
0
70
32
1
2 7/8
71
5
3
Standard
53
0
210
0
220
0
230
1
100
AcDbAlignedDimension
13
-0.6
23
-0.77
33
0
14
-0.19375
24
2.105
34
0
50
90
100
AcDbRotatedDimension
0
DIMENSION
5
E7
100
AcDbEntity
8
Annotations
6
ByLayer
62
256
370
0
100
AcDbDimension
2
*D7
10
-1
20
7.73
30
0
11
-1.075
21
6.2925
31
0
70
32
1
2 7/8
71
5
3
Standard
53
0
210
0
220
0
230
1
100
AcDbAlignedDimension
13
-0.19375
23
4.855
33
0
14
-0.6
24
7.73
34
0
50
90
100
AcDbRotatedDimension
0
DIMENSION
5
E8
100
AcDbEntity
8
Annotations
6
ByLayer
62
256
370
-1
100
AcDbDimension
2
*D8
10
0.65
20
8
30
0
11
0.025
21
8.075
31
0
70
32
1
1 1/4
71
5
72
0
3
Standard
53
0
210
0
220
0
230
1
100
AcDbAlignedDimension
13
-0.6
23
7.73
33
0
14
0.65
24
7.32375
34
0
100
AcDbRotatedDimension
0
DIMENSION
5
E9
100
AcDbEntity
8
Annotations
6
ByLayer
62
256
370
-1
100
AcDbDimension
2
*D9
10
4.9
20
8
30
0
11
2.775
21
8.075
31
0
70
32
1
4 1/4
71
5
72
0
3
Standard
53
0
210
0
220
0
230
1
100
AcDbAlignedDimension
13
0.65
23
7.32375
33
0
14
4.9
24
7.32375
34
0
100
AcDbRotatedDimension
0
DIMENSION
5
EA
100
AcDbEntity
8
Annotations
6
ByLayer
62
256
370
-1
100
AcDbDimension
2
*D10
10
9.15
20
8
30
0
11
7.025
21
8.075
31
0
70
32
1
4 1/4
71
5
72
0
3
Standard
53
0
210
0
220
0
230
1
100
AcDbAlignedDimension
13
4.9
23
7.32375
33
0
14
9.15
24
7.32375
34
0
100
AcDbRotatedDimension
0
DIMENSION
5
EB
100
AcDbEntity
8
Annotations
6
ByLayer
62
256
370
-1
100
AcDbDimension
2
*D11
10
10.4
20
8
30
0
11
9.775
21
8.075
31
0
70
32
1
1 1/4
71
5
72
0
3
Standard
53
0
210
0
220
0
230
1
100
AcDbAlignedDimension
13
9.15
23
7.32375
33
0
14
10.4
24
7.73
34
0
100
AcDbRotatedDimension
0
DIMENSION
5
EC
100
AcDbEntity
8
Annotations
6
ByLayer
62
256
370
-1
100
AcDbDimension
2
*D12
10
4.759375
20
7.32375
30
0
11
4.9
21
7.39875
31
0
70
35
1
     9/32
71
5
72
0
3
Standard
53
0
210
0
220
0
230
1
100
AcDbDiametricDimension
15
5.040625
25
7.32375
35
0
40
0
0
MTEXT
5
ED
100
AcDbEntity
8
Annotations
6
ByLayer
62
256
370
-1
100
AcDbMText
10
0
20
-1
30
0
40
0.1
41
4.76666682095
71
1
72
1
1
www.CircuitousRoot.com/artifice/drafting/crt-drawing-sizes/index.html
7
standard
210
0
220
0
230
1
50
0
73
2
44
1
0
MTEXT
5
EE
100
AcDbEntity
8
Annotations
6
ByLayer
62
256
370
-1
100
AcDbMText
10
6
20
-1
30
0
40
0.1
41
0.886111111111
71
1
72
1
1
Public Domain
7
standard
210
0
220
0
230
1
50
0
73
2
44
1
0
MTEXT
5
EF
100
AcDbEntity
8
Annotations
6
ByLayer
62
256
370
-1
100
AcDbMText
10
9
20
-1
30
0
40
0.1
41
1.18888888889
71
1
72
1
1
Rev. 1, 2014-11-17
7
standard
210
0
220
0
230
1
50
0
73
2
44
1
0
MTEXT
5
F0
100
AcDbEntity
8
Annotations
6
ByLayer
62
256
370
-1
100
AcDbMText
10
2.2
20
5
30
0
40
0.3
41
5.575
71
1
72
1
1
crt4 Drawing Frame Border
7
standard
210
0
220
0
230
1
50
0
73
2
44
1
0
MTEXT
5
F1
100
AcDbEntity
8
Annotations
6
ByLayer
62
256
370
-1
100
AcDbMText
10
2.8
20
3.3
30
0
40
0.12
41
4.48666665333
71
1
72
1
1
Y14.2-2008 line width min: 0.6 & 0.3 mm (thick & thin)
7
standard
210
0
220
0
230
1
50
0
73
2
44
1
0
MTEXT
5
F2
100
AcDbEntity
8
Annotations
6
ByLayer
62
256
370
-1
100
AcDbMText
10
3.4
20
3
30
0
40
0.12
41
3.16999997333
71
1
72
1
1
(0.6 mm ~= 0.024"   0.3 mm ~= 0.012")
7
standard
210
0
220
0
230
1
50
0
73
2
44
1
0
LINE
5
F3
100
AcDbEntity
8
crt4 Frame
6
ByLayer
62
256
370
-1
100
AcDbLine
10
0.012
20
1.4
11
0.012
21
7.11425
0
LINE
5
F4
100
AcDbEntity
8
crt4 Frame
6
ByLayer
62
256
370
-1
100
AcDbLine
10
0.012
20
0.012
11
0.012
21
1.2
0
LINE
5
F5
100
AcDbEntity
8
Annotations
6
ByLayer
62
256
370
-1
100
AcDbLine
10
10.056
20
4
11
10.056
21
4.6
0
LINE
5
F6
100
AcDbEntity
8
Annotations
6
ByLayer
62
256
370
-1
100
AcDbLine
10
10.08
20
1
11
10.08
21
1.6
0
LINE
5
F7
100
AcDbEntity
8
Annotations
6
ByLayer
62
256
370
-1
100
AcDbLine
10
10.02
20
1.4
11
10.1
21
1.4
0
LINE
5
F8
100
AcDbEntity
8
Annotations
6
ByLayer
62
256
370
-1
100
AcDbLine
10
10.02
20
1.2
11
10.13
21
1.2
0
LINE
5
F9
100
AcDbEntity
8
crt4 Frame
6
ByLayer
62
256
370
-1
100
AcDbLine
10
10.068
20
7.11425
11
10.068
21
1.4
0
LINE
5
FA
100
AcDbEntity
8
crt4 Frame
6
ByLayer
62
256
370
-1
100
AcDbLine
10
10.068
20
1.2
11
10.068
21
0.012
0
MTEXT
5
FB
100
AcDbEntity
8
Annotations
6
ByLayer
62
256
370
-1
100
AcDbMText
10
0.2
20
6.5
30
0
40
0.12
41
0.529999986667
71
1
72
1
1
CL(x) = 
7
standard
210
0
220
0
230
1
50
0
73
2
44
1
0
MTEXT
5
FC
100
AcDbEntity
8
Annotations
6
ByLayer
62
256
370
-1
100
AcDbMText
10
0.2
20
6.3
30
0
40
0.12
41
0.996666653333
71
1
72
1
1
0+(0.6/2 mm) 
7
standard
210
0
220
0
230
1
50
0
73
2
44
1
0
MTEXT
5
FD
100
AcDbEntity
8
Annotations
6
ByLayer
62
256
370
-1
100
AcDbMText
10
0.2
20
6.1
30
0
40
0.12
41
0.616666666667
71
1
72
1
1
 = 0.012"
7
standard
210
0
220
0
230
1
50
0
73
2
44
1
0
MTEXT
5
FE
100
AcDbEntity
8
Annotations
6
ByLayer
62
256
370
-1
100
AcDbMText
10
8.6
20
6.5
30
0
40
0.12
41
0.529999986667
71
1
72
1
1
CL(x) = 
7
standard
210
0
220
0
230
1
50
0
73
2
44
1
0
MTEXT
5
FF
100
AcDbEntity
8
Annotations
6
ByLayer
62
256
370
-1
100
AcDbMText
10
8.6
20
6.3
30
0
40
0.12
41
1.37666665333
71
1
72
1
1
10.08"-(0.6/2 mm) 
7
standard
210
0
220
0
230
1
50
0
73
2
44
1
0
MTEXT
5
100
100
AcDbEntity
8
Annotations
6
ByLayer
62
256
370
-1
100
AcDbMText
10
8.6
20
6.1
30
0
40
0.12
41
0.71
71
1
72
1
1
= 10.068"
7
standard
210
0
220
0
230
1
50
0
73
2
44
1
0
MTEXT
5
101
100
AcDbEntity
8
Annotations
6
ByLayer
62
256
370
-1
100
AcDbMText
10
4.5
20
6.7
30
0
40
0.12
41
0.529999986667
71
1
72
1
1
CL(x) = 
7
standard
210
0
220
0
230
1
50
0
73
2
44
1
0
MTEXT
5
102
100
AcDbEntity
8
Annotations
6
ByLayer
62
256
370
-1
100
AcDbMText
10
4.5
20
6.5
30
0
40
0.12
41
1.28333332
71
1
72
1
1
7.13"-(0.6/2 mm) 
7
standard
210
0
220
0
230
1
50
0
73
2
44
1
0
MTEXT
5
103
100
AcDbEntity
8
Annotations
6
ByLayer
62
256
370
-1
100
AcDbMText
10
4.5
20
0.8
30
0
40
0.12
41
0.529999986667
71
1
72
1
1
CL(x) = 
7
standard
210
0
220
0
230
1
50
0
73
2
44
1
0
MTEXT
5
104
100
AcDbEntity
8
Annotations
6
ByLayer
62
256
370
-1
100
AcDbMText
10
8.4
20
0.7
30
0
40
0.12
41
1.28333339505
71
1
72
1
1
Line ends to CL
7
standard
210
0
220
0
230
1
50
0
73
2
44
1
0
MTEXT
5
105
100
AcDbEntity
8
Annotations
6
ByLayer
62
256
370
-1
100
AcDbMText
10
8.4
20
0.5
30
0
40
0.12
41
1.31666666667
71
1
72
1
1
of Perpendicular
7
standard
210
0
220
0
230
1
50
0
73
2
44
1
0
DIMENSION
5
106
100
AcDbEntity
8
Annotations
6
ByLayer
62
256
370
-1
100
AcDbDimension
2
*D13
10
10.056
20
4.32
30
0
11
10.068
21
4.395
31
0
70
32
1
 
71
5
3
Standard
53
0
210
0
220
0
230
1
100
AcDbAlignedDimension
13
10.08
23
4.3
33
0
14
10.056
24
4.3
34
0
100
AcDbRotatedDimension
0
MTEXT
5
107
100
AcDbEntity
8
Annotations
6
ByLayer
62
256
370
-1
100
AcDbMText
10
8.7
20
4.5
30
0
40
0.12
41
1.22666665333
71
1
72
1
1
0.6 mm (0.024")
7
standard
210
0
220
0
230
1
50
0
73
2
44
1
0
LINE
5
108
100
AcDbEntity
8
crt4 Frame
6
ByLayer
62
256
370
-1
100
AcDbLine
10
0.012
20
0.012
11
1.2
21
0.012
0
DIMENSION
5
109
100
AcDbEntity
8
Annotations
6
ByLayer
62
256
370
-1
100
AcDbDimension
2
*D14
10
1.3
20
7.13
30
0
11
1.225
21
3.565
31
0
70
32
1
7.13" (181 mm)
71
5
3
Standard
53
0
210
0
220
0
230
1
100
AcDbAlignedDimension
13
1.3
23
-1.11022302463e-16
33
0
14
1.28569592089
24
7.13
34
0
50
90
100
AcDbRotatedDimension
0
DIMENSION
5
10A
100
AcDbEntity
8
Annotations
6
ByLayer
62
256
370
-1
100
AcDbDimension
2
*D15
10
10.08
20
1.3
30
0
11
5.04
21
1.375
31
0
70
32
1
10.08"  (256mm)
71
5
3
Standard
53
0
210
0
220
0
230
1
100
AcDbAlignedDimension
13
-2.49800180541e-16
23
1.3
33
0
14
10.08
24
1.30284301607
34
0
100
AcDbRotatedDimension
0
LINE
5
10B
100
AcDbEntity
8
crt4 Frame
6
ByLayer
62
256
370
-1
100
AcDbLine
10
0.0124
20
7.118
11
1.2
21
7.118
0
MTEXT
5
10C
100
AcDbEntity
8
Annotations
6
ByLayer
62
256
370
-1
100
AcDbMText
10
4.5
20
0.6
30
0
40
0.12
41
1.08333332
71
1
72
1
1
0"+(0.6/2 mm) 
7
standard
210
0
220
0
230
1
50
0
73
2
44
1
0
LINE
5
10D
100
AcDbEntity
8
crt4 Frame
6
ByLayer
62
256
370
-1
100
AcDbLine
10
1.4
20
7.118
11
10.068
21
7.118
0
MTEXT
5
10E
100
AcDbEntity
8
Annotations
6
ByLayer
62
256
370
-1
100
AcDbMText
10
4.5
20
6.3
30
0
40
0.12
41
0.59
71
1
72
1
1
= 7.118"
7
standard
210
0
220
0
230
1
50
0
73
2
44
1
0
LINE
5
10F
100
AcDbEntity
8
crt4 Frame
6
ByLayer
62
256
370
-1
100
AcDbLine
10
1.4
20
0.0118
11
10.068
21
0.0118
0
MTEXT
5
110
100
AcDbEntity
8
Annotations
6
ByLayer
62
256
370
-1
100
AcDbMText
10
4.5
20
0.4
30
0
40
0.12
41
0.59
71
1
72
1
1
= 0.118"
7
standard
210
0
220
0
230
1
50
0
73
2
44
1
0
ENDSEC
0
SECTION
2
OBJECTS
0
DICTIONARY
5
C
330
0
100
AcDbDictionary
281
1
3
ACAD_GROUP
350
D
0
DICTIONARY
5
D
330
C
100
AcDbDictionary
281
1
0
ENDSEC
0
EOF
